Haunting of the Innocent 2014 DVDRiP XViD-FiRE

Category:Movies » DVDRip/DVDScreener / Author: / Added:6-02-2014, 07:55 / Views:164 / mayumi Blog mayumi Blog RSS
Haunting.of.the.Innocent.2014.DVDRiP.XViD-FiRE
Direct Haunting of the Innocent 2014 DVDRiP XViD-FiRE


Haunting of the Innocent 2014 DVDRiP XViD-FiRE
Haunting of the Innocent 2014 DVDRiP XViD-FiRE
| 703.28 MB
File: Haunting.of.the.Innocent.2014.DVDRiP.XViD-FiRE.avi
Size: 732112896 bytes (698.20 MiB), duration: 01:40:43, avg.bitrate: 969 kb/s
Audio: mp3, 48000 Hz, stereo, 112 kb/s
Video: mpeg4, yuv420p, 656x352, 23.98 fps(r)

iMDB iNFO

Desperate to reconnect with his wife and son after a violent attack leaves them fear-stricken and traumatized, a father moves his family to a sleepy New England town and finds himself in a fight against supernatural forces hell-bent on tearing them apart.

Title:Haunting of the Innocent
Year:2014
Rating:3.9
Genre:Thriller
Director:Matt Hish
Cast:Judd Nelson / Jessica Morris / Hannah Cowley / Rib Hillis / Neil Dickson / Autumn Federici / Apphia Castillo / Tina Hillstrom / Flood Reed / Gina Gretta / Matt Hish / Ian Ford / Ward Edmondson / Danielle Reverman / Dane Hillis
Haunting of the Innocent 2014 DVDRiP XViD-FiRE

NFo
General
Complete name : Haunting.of.the.Innocent.2014.DVDRiP.XViD-FiRE.avi
Format : AVI
Format/Info : Audio Video Interleave
File size : 698 MiB
Duration : 1h 40mn
Overall bit rate : 969 Kbps
Writing application : VirtualDubMod 1.5.10.2 (build 2542/release)
Writing library : VirtualDubMod build 2542/release
Video
ID : 0
Format : MPEG-4 Visual
Format profile : Advanced Simple@L5
Format settings, BVOP : 2
Format settings, QPel : No
Format settings, GMC : No warppoints
Format settings, Matrix : Default (H.263)
Muxing mode : Packed bitstream
Codec ID : XVID
Codec ID/Hint : XviD
Duration : 1h 40mn
Bit rate : 848 Kbps
Width : 656 pixels
Height : 352 pixels
Display aspect ratio : 1.85:1
Frame rate : 23.976 fps
Color space : YUV
Chroma subsampling : 4:2:0
Bit depth : 8 bits
Scan type : Progressive
Compression mode : Lossy
Bits/(Pixel*Frame) : 0.153
Stream size : 611 MiB (87%)
Writing library : XviD 65
Audio
ID : 1
Format : MPEG Audio
Format version : Version 1
Format profile : Layer 3
Mode : Joint stereo
Mode extension : MS Stereo
Codec ID : 55
Codec ID/Hint : MP3
Duration : 1h 40mn
Bit rate mode : Constant
Bit rate : 112 Kbps
Channel(s) : 2 channels
Sampling rate : 48.0 KHz
Compression mode : Lossy
Stream size : 80.7 MiB (12%)
Alignment : Aligned on interleaves
Interleave, duration : 42 ms (1.00 video frame)
Interleave, preload duration : 504 ms
Haunting of the Innocent 2014 DVDRiP XViD-FiRE
Buy Premium Account and Download it at High Speed Before They Get Deleted
Haunting of the Innocent 2014 DVDRiP XViD-FiRE

Buy Premium account before downloading For Very Fast download Speed
Haunting_of_the_Innocent_2014_DVDRiP_XViD_FiRE_5fhk3QtUXnuAaH.rar.html


Haunting of the Innocent 2014 DVDRiP XViD-FiRE



Find my other uploads Here
If you like My contribution Then Please support me by getting an premium account


Haunting+of+the+Innocent+2014+DVDRiP+XViD-FiRE
Get Haunting of the Innocent 2014 DVDRiP XViD-FiRE From Fast Server

Related:
Comment:
Download Haunting of the Innocent 2014 DVDRiP XViD-FiRE From File Hosts,This post added 07:55,February 6,2014 By In DVDRip/DVDScreener Haunting.of.the.Innocent.2014.DVDRiP.XViD-FiRE Can Download From Here Too No Torrent


Copyright Tinydl 2007-2012. All rights reserved.Privacy Policy
None Of The Files Shown Here Are Hosted Or Transmitted By This Site.




/ Forgot your password?