Mega Shark vs Mecha Shark 2014 DVDRip x264 AC3-JAWS

Category:Movies » DVDRip/DVDScreener / Author: / Added:3-02-2014, 06:03 / Views:194 / mayumi Blog mayumi Blog RSS
Mega.Shark.vs.Mecha.Shark.2014.DVDRip.x264.AC3-JAWS
Direct Mega Shark vs Mecha Shark 2014 DVDRip x264 AC3-JAWS


Mega Shark vs Mecha Shark 2014 DVDRip x264 AC3-JAWS
Mega Shark vs Mecha Shark 2014 DVDRip x264 AC3-JAWS
| 1.1 GB
File: Mega Shark vs Mecha Shark 2014 DVDRip x264 AC3-JAWS.mkv
Size: 1155736190 bytes (1.08 GiB), duration: 01:25:31, avg.bitrate: 1802 kb/s
Audio: ac3, 48000 Hz, 5:1 (eng)
Video: h264, yuv420p, 704x400, 23.98 fps(r)

iMDB iNFO


Title:Mega Shark vs. Mecha Shark
Year:2014
Rating:8.0
Director:Emile Edwin Smith
Cast:Kate Avery / Hannah Levien / Simon Barbaro / Luca Bello / Phil Biedron / Andrew Bongiorno / Lance Buckner / Alecia Burnett / Vincent Cusimano / Ozzie Devrish / Derek Easley / Colin Flynn / Alain Gerard / Cameron Gordon / Jill Hagara
Mega Shark vs Mecha Shark 2014 DVDRip x264 AC3-JAWS

NFo
Mega Shark vs Mecha Shark 2014 DVDRip x264 AC3-JAWS
Source - DVD9 NTSC - Thx
Storyline
A new mega shark emerges to terrorize the seas, but the U.S. government comes prepared with a giant mechanical shark to combat the threat.
Mega Shark vs Mecha Shark 2014 DVDRip x264 AC3-JAWS
Mega Shark vs Mecha Shark 2014 DVDRip x264 AC3-JAWS
Mega Shark vs Mecha Shark 2014 DVDRip x264 AC3-JAWS
Mega Shark vs Mecha Shark 2014 DVDRip x264 AC3-JAWS
Mega Shark vs Mecha Shark 2014 DVDRip x264 AC3-JAWS
http://www.imdb.com/title/tt3152098/
General
Complete name : Mega Shark vs Mecha Shark 2014 DVDRip x264 AC3-JAWS.mkv
Format : Matroska
Format version : Version 2
File size : 1.08 GiB
Duration : 1h 25mn
Overall bit rate mode : Variable
Overall bit rate : 1 802 Kbps
Encoded date : UTC 2014-02-03 02:58:41
Writing application : mkvmerge v6.5.0 ('Isn't she lovely') built on Oct 20 2013 12:50:05
Writing library : libebml v1.3.0 + libmatroska v1.4.1
Video
ID : 1
Format : AVC
Format/Info : Advanced Video Codec
Format profile : [email protected]
Format settings, CABAC : Yes
Format settings, ReFrames : 3 frames
Codec ID : V_MPEG4/ISO/AVC
Duration : 1h 25mn
Bit rate mode : Variable
Bit rate : 1 318 Kbps
Maximum bit rate : 40.0 Mbps
Width : 704 pixels
Height : 400 pixels
Display aspect ratio : 16:9
Frame rate mode : Constant
Frame rate : 23.976 fps
Color space : YUV
Chroma subsampling : 4:2:0
Bit depth : 8 bits
Scan type : Progressive
Bits/(Pixel*Frame) : 0.195
Stream size : 806 MiB (73%)
Writing library : x264 core 140 r2377 1ca7bb9
Audio
ID : 2
Format : AC-3
Format/Info : Audio Coding 3
Mode extension : CM (complete main)
Format settings, Endianness : Big
Codec ID : A_AC3
Duration : 1h 25mn
Bit rate mode : Constant
Bit rate : 448 Kbps
Channel(s) : 6 channels
Channel positions : Front: L C R, Side: L R, LFE
Sampling rate : 48.0 KHz
Bit depth : 16 bits
Compression mode : Lossy
Stream size : 274 MiB (25%)
Language : English
Default : Yes
Forced : No
Mega Shark vs Mecha Shark 2014 DVDRip x264 AC3-JAWS
Buy Premium Account and Download it at High Speed Before They Get Deleted
Mega Shark vs Mecha Shark 2014 DVDRip x264 AC3-JAWS

Buy Premium account before downloading For Very Fast download Speed
Mega_Shark_vs_Mecha_Shark_2014_DVDRip_x264_AC3_JAWS_5fhk3QtUXnuAaH.rar.html


Mega Shark vs Mecha Shark 2014 DVDRip x264 AC3-JAWS



Find my other uploads Here
If you like My contribution Then Please support me by getting an premium account


Mega+Shark+vs+Mecha+Shark+2014+DVDRip+x264+AC3-JAWS
Get Mega Shark vs Mecha Shark 2014 DVDRip x264 AC3-JAWS From Fast Server

Related:
Comment:
Download Mega Shark vs Mecha Shark 2014 DVDRip x264 AC3-JAWS From File Hosts,This post added 06:03,February 3,2014 By In DVDRip/DVDScreener Mega.Shark.vs.Mecha.Shark.2014.DVDRip.x264.AC3-JAWS Can Download From Here Too No Torrent


Copyright Tinydl 2007-2012. All rights reserved.Privacy Policy
None Of The Files Shown Here Are Hosted Or Transmitted By This Site.




/ Forgot your password?