54.82.77.50 Deprecated: preg_replace(): The /e modifier is deprecated, use preg_replace_callback instead in /home/tinydl/public_html/engine/classes/templates.class.php on line 67 Deprecated: preg_replace(): The /e modifier is deprecated, use preg_replace_callback instead in /home/tinydl/public_html/engine/classes/templates.class.php on line 71 Deprecated: preg_replace(): The /e modifier is deprecated, use preg_replace_callback instead in /home/tinydl/public_html/engine/classes/templates.class.php on line 67 Deprecated: preg_replace(): The /e modifier is deprecated, use preg_replace_callback instead in /home/tinydl/public_html/engine/modules/show.full.php on line 279 Deprecated: preg_replace(): The /e modifier is deprecated, use preg_replace_callback instead in /home/tinydl/public_html/engine/classes/templates.class.php on line 59 Deprecated: preg_replace(): The /e modifier is deprecated, use preg_replace_callback instead in /home/tinydl/public_html/engine/classes/templates.class.php on line 67 Deprecated: preg_replace(): The /e modifier is deprecated, use preg_replace_callback instead in /home/tinydl/public_html/engine/classes/templates.class.php on line 76 Deprecated: preg_replace(): The /e modifier is deprecated, use preg_replace_callback instead in /home/tinydl/public_html/engine/classes/templates.class.php on line 165 Deprecated: preg_replace(): The /e modifier is deprecated, use preg_replace_callback instead in /home/tinydl/public_html/engine/classes/templates.class.php on line 169 Deprecated: preg_replace(): The /e modifier is deprecated, use preg_replace_callback instead in /home/tinydl/public_html/engine/classes/templates.class.php on line 165 Deprecated: preg_replace(): The /e modifier is deprecated, use preg_replace_callback instead in /home/tinydl/public_html/engine/classes/templates.class.php on line 165 Frozen 2013 CAM XViD-BL4CKP34RL | Tiny Download Full And Free Links

Frozen 2013 CAM XViD-BL4CKP34RL

Category:Movies » Cam / Author: / Added:8-12-2013, 03:59 / Views:514 / mayumi Blog mayumi Blog RSS
Frozen+2013+CAM+XViD-BL4CKP34RL
Get Frozen 2013 CAM XViD-BL4CKP34RL From Fast Server


Frozen 2013 CAM XViD-BL4CKP34RL
Frozen 2013 CAM XViD-BL4CKP34RL
| 1.39 GB
File: Frozen.2013.CAM.XViD-BL4CKP34RL.avi
Size: 1472727960 bytes (1.37 GiB), duration: 01:32:27, avg.bitrate: 2124 kb/s
Audio: ac3, 48000 Hz, stereo, 128 kb/s
Video: mpeg4, yuv420p, 720x368, 29.97 fps(r)

iMDB iNFO

Anna, a fearless optimist, sets off on an epic journey - teaming up with rugged mountain man Kristoff and his loyal reindeer Sven - to find her sister Elsa, whose icy powers have trapped the kingdom of Arendelle in eternal winter. Encountering Everest-like conditions, mystical trolls and a hilarious snowman named Olaf, Anna and Kristoff battle the elements in a race to save the kingdom. From the outside Anna's sister, Elsa looks poised, regal and reserved, but in reality, she lives in fear as she wrestles with a mighty secret-she was born with the power to create ice and snow. It's a beautiful ability, but also extremely dangerous. Haunted by the moment her magic nearly killed her younger sister Anna, Elsa has isolated herself, spending every waking minute trying to suppress her growing powers. Her mounting emotions trigger the magic, accidentally setting off an eternal winter that she can't stop. She fears she's becoming a monster and that no one, not even her sister, can help her.

Title:Frozen
Year:2013
Rating:8.1
Genre:Animation / Adventure / Comedy / Family / Fantasy
Director:Chris Buck / Jennifer Lee
Cast:Kristen Bell / Idina Menzel / Jonathan Groff / Josh Gad / Santino Fontana / Alan Tudyk / CiarĂ¡n Hinds / Chris Williams / Stephen J. Anderson / Maia Wilson / Edie McClurg / Robert Pine / Maurice LaMarche / Livvy Stubenrauch / Eva Bella
Frozen 2013 CAM XViD-BL4CKP34RL

NFo

d8888b. db j88D .o88b. db dD d8888b. d8888b. j88D d8888b. db
88 `8D 88 j8~88 d8P Y8 88 ,8P' 88 `8D VP `8D j8~88 88 `8D 88
88oooY' 88 j8' 88 8P 88,8P 88oodD' oooY' j8' 88 88oobY' 88
88~~~b. 88 V88888D 8b 88`8b 88~~~ ~~~b. V88888D 88`8b 88
88 8D 88booo. 88 Y8b d8 88 `88. 88 db 8D 88 88 `88. 88booo.
Y8888P' Y88888P VP `Y88P' YP YD 88 Y8888P' VP 88 YD Y88888P

A Fine Release Brought to you from - BL4CKP34RL
******************************************************************************************
Frozen.2013.CAM.XViD-BL4CKP34RL
******************************************************************************************
Ripper ...........: J4CKSP4RR0W IMDB Rating.......: 8.1/10
Video Codec.......: XViD Release Date......: 6 December 2013
Audio Codec.......: mp3 Theatre Date......: 27 November 2013
Audio Bitrate.....: 128 kbps Runtime...........: 1hr 32min 27sec
Subtitles.........: no Language..........: ENGLISH
Resolution........: 720x368 IMDb URL..........: http://www.imdb.com/title/tt2294629/
DETAILS:
Format : AVI
Format/Info : Audio Video Interleave
File size : 1.37 GiB
Duration : 1h 32mn
Overall bit rate : 2 124 Kbps
Writing application : VirtualDubMod 1.5.10.2 (build 2540/release)
Writing library : VirtualDub build 32839/release
Video
ID : 0
Format : MPEG-4 Visual
Format profile : Advanced Simple@L5
Format settings, BVOP : 2
Format settings, QPel : Yes
Format settings, GMC : No warppoints
Format settings, Matrix : Default (H.263)
Muxing mode : Packed bitstream
Codec ID : XVID
Codec ID/Hint : XviD
Duration : 1h 32mn
Bit rate : 1 984 Kbps
Width : 720 pixels
Height : 368 pixels
Display aspect ratio : 1.957
Frame rate : 29.970 fps
Color space : YUV
Chroma subsampling : 4:2:0
Bit depth : 8 bits
Scan type : Progressive
Compression mode : Lossy
Bits/(Pixel*Frame) : 0.250
Stream size : 1.28 GiB (93%)
Writing library : XviD 64
Audio
ID : 1
Format : AC-3
Format/Info : Audio Coding 3
Mode extension : CM (complete main)
Format settings, Endianness : Big
Codec ID : 2000
Duration : 1h 32mn
Bit rate mode : Constant
Bit rate : 128 Kbps
Channel(s) : 2 channels
Channel positions : Front: L R
Sampling rate : 48.0 KHz
Bit depth : 16 bits
Compression mode : Lossy
Stream size : 84.6 MiB (6%)
Alignment : Split accross interleaves
Interleave, duration : 33 ms (1.00 video frame)
Interleave, preload duration : 500 ms
SOURCES:
VIDEO: .............sum source ...thanks
AUDIO: .............same place...thanks
NOTES:
Blurred watermarks then fixed what we could.. still a few blocky parts but alot beter than it was.. audio pretty decent CAM audio.
SCREENS:
Frozen 2013 CAM XViD-BL4CKP34RL
Frozen 2013 CAM XViD-BL4CKP34RL
Frozen 2013 CAM XViD-BL4CKP34RL
Frozen 2013 CAM XViD-BL4CKP34RL
Frozen 2013 CAM XViD-BL4CKP34RL
Frozen 2013 CAM XViD-BL4CKP34RL
GREETS:
To those that deserve it.. You know who you are
Looking for not a damn thing[/COLOR]
JUST BECAUSE WE CAN:
FOR THE GUYS AT DOM
Frozen 2013 CAM XViD-BL4CKP34RL
Frozen+2013+CAM+XViD-BL4CKP34RL
Get Frozen 2013 CAM XViD-BL4CKP34RL From Fast Server

Related:
    {related-news}
Comment:
Download Frozen 2013 CAM XViD-BL4CKP34RL From File Hosts,This post added 03:59,December 8,2013 By In Cam Frozen.2013.CAM.XViD-BL4CKP34RL Can Download From Here Too No Torrent


Copyright © Tinydl 2007-2012. All rights reserved.Privacy Policy
None Of The Files Shown Here Are Hosted Or Transmitted By This Site.




/ Forgot your password?