[Argentina]Snuff 102 2007 DVDRip XviD-NoGrP

Category:Movies » DVDRip/DVDScreener / Author: / Added:19-09-2013, 05:32 / Views:215 / mayumi Blog mayumi Blog RSS
[Argentina]Snuff.102.2007.DVDRip.XviD-NoGrP
Direct [Argentina]Snuff 102 2007 DVDRip XviD-NoGrP


[Argentina]Snuff 102 2007 DVDRip XviD-NoGrP
[Argentina]Snuff 102 2007 DVDRip XviD-NoGrP
| 698.88 MB
01:40:52 | 560x320 | 969 kb/s | 29.97 fps(r) | mp3, 48000 Hz, stereo, 32 kb/s | 698.86 MiB

iMDB iNFO

One of the most realistic train pictures ever offered. Taken on the Auburn division of the Lehigh Valley Railroad, and shows one of the company's largest rotary snowplows, propelled by three powerful engines, plowing through an immense drift of snow.

Title:Working Rotary Snow Ploughs on Lehigh Valley Railroad
Year:1902
Rating:5.7
Genre:Documentary / Short

[Argentina]Snuff 102 2007 DVDRip XviD-NoGrP

NFo
-------------------------------------------------------------------------------
General Information
-------------------------------------------------------------------------------
General
Complete name : Snuff 102
Format : AVI
Format/Info : Audio Video Interleave
File size : 699 MiB
Duration : 1h 40mn
Overall bit rate mode : Variable
Overall bit rate : 969 Kbps
Writing application : VirtualDubMod 1.5.4.1 (build 2178/release)
Writing library : VirtualDubMod build 2178/release
Video
ID : 0
Format : MPEG-4 Visual
Format profile : Advanced Simple@L5
Format settings, BVOP : 1
Format settings, QPel : No
Format settings, GMC : No warppoints
Format settings, Matrix : Custom
Codec ID : XVID
Codec ID/Hint : XviD
Duration : 1h 40mn
Bit rate : 840 Kbps
Width : 560 pixels
Height : 320 pixels
Display aspect ratio : 16:9
Frame rate : 29.970 fps
Color space : YUV
Chroma subsampling : 4:2:0
Bit depth : 8 bits
Scan type : Progressive
Compression mode : Lossy
Bits/(Pixel*Frame) : 0.156
Stream size : 606 MiB (87%)
Writing library : XviD 1.2.0.dev47 (UTC 2006-11-01)
Audio
ID : 1
Format : MPEG Audio
Format version : Version 1
Format profile : Layer 3
Mode : Joint stereo
Mode extension : MS Stereo
Codec ID : 55
Codec ID/Hint : MP3
Duration : 1h 40mn
Bit rate mode : Variable
Bit rate : 115 Kbps
Nominal bit rate : 128 Kbps
Channel(s) : 2 channels
Sampling rate : 48.0 KHz
Compression mode : Lossy
Stream size : 82.9 MiB (12%)
Alignment : Aligned on interleaves
Interleave, duration : 24 ms (0.72 video frame)
Interleave, preload duration : 160 ms
Writing library : LAME3.97
Encoding settings : -m j -V 4 -q 2 -lowpass 17 --abr 128
Language : Spanish
[Argentina]Snuff 102 2007 DVDRip XviD-NoGrP
Buy Premium Account and Download it at High Speed Before They Get Deleted

[Argentina]Snuff 102 2007 DVDRip XviD-NoGrP







If you like My contribution Then Please support me by getting an premium account

[Argentina]Snuff+102+2007+DVDRip+XviD-NoGrP
Get [Argentina]Snuff 102 2007 DVDRip XviD-NoGrP From Fast Server

Related:
Comment:
Download [Argentina]Snuff 102 2007 DVDRip XviD-NoGrP From File Hosts,This post added 05:32,September 19,2013 By In DVDRip/DVDScreener [Argentina]Snuff.102.2007.DVDRip.XviD-NoGrP Can Download From Here Too No Torrent


Copyright Tinydl 2007-2012. All rights reserved.Privacy Policy
None Of The Files Shown Here Are Hosted Or Transmitted By This Site.




/ Forgot your password?