AKB48 - Sayonara Crawl (2013)

Category:Musics,Music Video,Mp3s / Author: / Added:18-08-2013, 06:26 / Views:147 / xiucoi Blog xiucoi Blog RSS
AKB48.-.Sayonara.Crawl.(2013)
Direct AKB48 - Sayonara Crawl (2013)


AKB48 - Sayonara Crawl (2013)

AKB48 - Sayonara Crawl (2013)
Japanese | MP4 | *1080p* 1920x1080 | 29.970 fps | AVC 5576 Kbps | AAC 192 Kbps | 6:15 min | 258 MB
Japanese Pop

AKB48 (read "A.K.B. Forty-eight") is a Japanese idol girl group. As of July 2013, the group has 93 members. The girls range in age from early teens to mid-20s. Produced by Yasushi Akimoto, it is one of the highest-earning musical acts in the world, with 2012 record sales of over US$226 million in Japan. It has achieved such popularity in Japan that it has been characterized as a social phenomenon."

General
Complete name : AKB48_-_Sayonara_Crawl_PV_1080.mp4
Format : MPEG-4
Format profile : Base Media / Version 2
Codec ID : mp42
File size : 258 MiB
Duration : 6mn 15s
Overall bit rate mode : Variable
Overall bit rate : 5 770 Kbps
Encoded date : UTC 2013-05-13 21:38:12
Tagged date : UTC 2013-05-13 21:38:12
gsst : 0
gstd : 375628
gssd : B76621E46HH1368667432546765

Video
ID : 1
Format : AVC
Format/Info : Advanced Video Codec
Format profile : [email protected]
Format settings, CABAC : Yes
Format settings, ReFrames : 1 frame
Codec ID : avc1
Codec ID/Info : Advanced Video Coding
Duration : 6mn 15s
Bit rate : 5 576 Kbps
Maximum bit rate : 10.0 Mbps
Width : 1 920 pixels
Height : 1 080 pixels
Display aspect ratio : 16:9
Frame rate mode : Constant
Frame rate : 29.970 fps
Color space : YUV
Chroma subsampling : 4:2:0
Bit depth : 8 bits
Scan type : Progressive
Bits/(Pixel*Frame) : 0.090
Stream size : 250 MiB (97%)
Tagged date : UTC 2013-05-13 21:40:25

Audio
ID : 2
Format : AAC
Format/Info : Advanced Audio Codec
Format profile : LC
Codec ID : 40
Duration : 6mn 15s
Bit rate mode : Variable
Bit rate : 192 Kbps
Maximum bit rate : 201 Kbps
Channel(s) : 2 channels
Channel positions : Front: L R
Sampling rate : 44.1 KHz
Compression mode : Lossy
Stream size : 8.59 MiB (3%)
Title : IsoMedia File Produced by Google, 5-11-2011
Encoded date : UTC 2013-05-13 21:38:51
Tagged date : UTC 2013-05-13 21:40:25

Screenshots:
AKB48 - Sayonara Crawl (2013)
AKB48 - Sayonara Crawl (2013)
AKB48 - Sayonara Crawl (2013)
AKB48 - Sayonara Crawl (2013)
AKB48 - Sayonara Crawl (2013)
AKB48 - Sayonara Crawl (2013)
AKB48 - Sayonara Crawl (2013)
AKB48 - Sayonara Crawl (2013)


With Premium Account For Maximum Speed! Buy it Now To Save Time





AKB48+-+Sayonara+Crawl+(2013)
Get AKB48 - Sayonara Crawl (2013) From Fast Server

Related:
Comment:
Download AKB48 - Sayonara Crawl (2013) From File Hosts,This post added 06:26,August 18,2013 By In Musics,Music Video,Mp3s AKB48.-.Sayonara.Crawl.(2013) Can Download From Here Too No Torrent


Copyright Tinydl 2007-2012. All rights reserved.Privacy Policy
None Of The Files Shown Here Are Hosted Or Transmitted By This Site.




/ Forgot your password?